Menu

Search


Vote for us

Top Partner

Links

WWE SummerSlam 2014
Vö-Datum: 17.08.2014 - Releasedatum: 18.08.2014
WWE.SummerSlam.2014.720p.WEB-DL.4500k.x264-DN

Genre: Show, Sport
Sprache(n): Englisch
Untertitel:
Audiostream: Stereo
Videocodec: MPEG-4 H.264
Videostream: WEBRip
Laufzeit: 170 Minuten
Größe: 5450 MB
Freigegeben ab:
Imdb:



Vote Raidrush.wsVote Woz.to


Lade kostenlos WWE SummerSlam 2014 720p WEB-DL 4500k x264-DN mit Fullspeed!

Paket #1 von NeXTGeneration

unkownDownload via oboom.comunkownDownload via share-online.bizunkownDownload via megacache.netonlineDownload via freehighspeed

Passwort: NeXt
18.08.2014

SummerSlam (2014) is an upcoming professional wrestling pay-per-view (PPV) event produced by WWE. It will take place on August 17, 2014 at the Staples Center in Los Angeles, California. It will be the twenty-seventh annual SummerSlam, and the sixth consecutive event held at the Staples Center. John Cena (c) vs. Brock Lesnar (with Paul Heyman) Bray Wyatt vs. Chris Jericho Brie Bella (Nikki Bella) vs. Stephanie McMahon (with Triple H) Jack Swagger (with Zeb Colter) vs. Rusev (with Lana) (Flag match) AJ Lee (c) vs. Paige Randy Orton vs. Roman Reigns The Miz (c) vs. Dolph Ziggler Dean Ambrose vs. Seth Rollins (Lumberjack match)

Nfo-File:
WWE.SummerSlam.2014.720p.WEB-DL.4500k.x264-DN.mp4
Format                                   : MPEG-4
Format profile                           : Base Media
Codec ID                                 : isom
File size                                : 5.41 GiB
Duration                                 : 2h 51mn
Overall bit rate mode                    : Constant
Overall bit rate                         : 4 509 Kbps
Writing application                      : Lavf55.32.101

Video
ID                                       : 1
Format                                   : AVC
Format/Info                              : Advanced Video Codec
Format profile                           : High@L4.0
Format settings, CABAC                   : Yes
Format settings, ReFrames                : 4 frames
Codec ID                                 : avc1
Codec ID/Info                            : Advanced Video Coding
Duration                                 : 2h 51mn
Bit rate mode                            : Constant
Bit rate                                 : 4 372 Kbps
Width                                    : 1 280 pixels
Height                                   : 720 pixels
Display aspect ratio                     : 16:9
Frame rate mode                          : Constant
Frame rate                               : 29.970 fps
Color space                              : YUV
Chroma subsampling                       : 4:2:0
Bit depth                                : 8 bits
Scan type                                : Progressive
Bits/(Pixel*Frame)                       : 0.158
Stream size                              : 5.25 GiB (97%)

Audio
ID                                       : 2
Format                                   : AAC
Format/Info                              : Advanced Audio Codec
Format profile                           : LC
Codec ID                                 : 40
Duration                                 : 2h 51mn
Bit rate mode                            : Constant
Bit rate                                 : 125 Kbps
Channel(s)                               : 2 channels
Channel positions                        : Front: L R
Sampling rate                            : 48.0 KHz
Compression mode                         : Lossy
Stream size                              : 154 MiB (3%
WWE.SummerSlam.2014.720p.WEB-DL.4500k.x264-DN.mp4 Format : MPEG-4 Format profile : Base Media Codec ID : isom File size : 5.41 GiB Duration : 2h 51mn Overall bit rate mode : Constant Overall bit rate : 4 509 Kbps Writing application : Lavf55.32.101 Video ID : 1 Format : AVC Format/Info : Advanced Video Codec Format profile : High@L4.0 Format settings, CABAC : Yes Format settings, ReFrames : 4 frames Codec ID : avc1 Codec ID/Info : Advanced Video Coding Duration : 2h 51mn Bit rate mode : Constant Bit rate : 4 372 Kbps Width : 1 280 pixels Height : 720 pixels Display aspect ratio : 16:9 Frame rate mode : Constant Frame rate : 29.970 fps Color space : YUV Chroma subsampling : 4:2:0 Bit depth : 8 bits Scan type : Progressive Bits/(Pixel*Frame) : 0.158 Stream size : 5.25 GiB (97%) Audio ID : 2 Format : AAC Format/Info : Advanced Audio Codec Format profile : LC Codec ID : 40 Duration : 2h 51mn Bit rate mode : Constant Bit rate : 125 Kbps Channel(s) : 2 channels Channel positions : Front: L R Sampling rate : 48.0 KHz Compression mode : Lossy Stream size : 154 MiB (3%

 

Sitemap