Menu

Search


Vote for us

Top Partner

Links

Fuck My White Ass 5
Vö-Datum: 28.01.2009 - Releasedatum: 28.01.2009
Fuck.My.White.Ass.5.XXX.1080p.WEB-DL.MP4-NHD

Genre: Anal, Interracial
Sprache(n): Englisch
Untertitel:
Audiostream: Stereo
Videocodec: VC-1
Videostream: Blu-ray
Laufzeit: 167 Minuten
Größe: 10900 MB
Notizen: Screenshot-1Screenshot-2Screenshot-3



Vote Raidrush.wsVote Woz.to


Lade kostenlos Fuck My White Ass 5 XXX 1080p WEB-DL MP4-NHD mit Fullspeed!

The critically-acclaimed Interracial/All-Anal series continues with the finest, tightest and whitest butt holes getting slammed, jammed and rammed by the thickest black poles! If the meat is black, these sluts attack and they definitely won\\\\\\\'t mind if you fuck their tight white behinds!

Nfo-File:
MOV
Format                                   : MPEG-4
Format profile                           : Base Media
Codec ID                                 : isom
File size                                : 1.49 GiB
Duration                                 : 23mn 17s
Overall bit rate mode                    : Variable
Overall bit rate                         : 9 166 Kbps
Writing application                      : Lavf52.16.0
Comment                                  : FlixEngineLinux_8.0.14.0 (www.on2.com)

Video
ID                                       : 1
Format                                   : AVC
Format/Info                              : Advanced Video Codec
Format profile                           : Baseline@L4.0
Format settings, CABAC                   : No
Format settings, ReFrames                : 1 frame
Format settings, GOP                     : M=1, N=20
Codec ID                                 : avc1
Codec ID/Info                            : Advanced Video Coding
Duration                                 : 23mn 17s
Bit rate                                 : 9 033 Kbps
Width                                    : 1 920 pixels
Height                                   : 1 080 pixels
Display aspect ratio                     : 16:9
Color space                              : YUV
Chroma subsampling                       : 4:2:0
Bit depth                                : 8 bits
Scan type                                : Progressive
Stream size                              : 1.47 GiB (99%)

Audio
ID                                       : 2
Format                                   : AAC
Format/Info                              : Advanced Audio Codec
Format profile                           : LC
Codec ID                                 : 40
Duration                                 : 23mn 17s
Bit rate mode                            : Variable
Bit rate                                 : 128 Kbps
Channel(s)                               : 2 channels
Channel positions                        : Front: L R
Sampling rate                            : 48.0 KHz
Compression mode                         : Lossy
Stream size                              : 21.3 MiB (1%)

MOV Format : MPEG-4 Format profile : Base Media Codec ID : isom File size : 1.49 GiB Duration : 23mn 17s Overall bit rate mode : Variable Overall bit rate : 9 166 Kbps Writing application : Lavf52.16.0 Comment : FlixEngineLinux_8.0.14.0 (www.on2.com) Video ID : 1 Format : AVC Format/Info : Advanced Video Codec Format profile : Baseline@L4.0 Format settings, CABAC : No Format settings, ReFrames : 1 frame Format settings, GOP : M=1, N=20 Codec ID : avc1 Codec ID/Info : Advanced Video Coding Duration : 23mn 17s Bit rate : 9 033 Kbps Width : 1 920 pixels Height : 1 080 pixels Display aspect ratio : 16:9 Color space : YUV Chroma subsampling : 4:2:0 Bit depth : 8 bits Scan type : Progressive Stream size : 1.47 GiB (99%) Audio ID : 2 Format : AAC Format/Info : Advanced Audio Codec Format profile : LC Codec ID : 40 Duration : 23mn 17s Bit rate mode : Variable Bit rate : 128 Kbps Channel(s) : 2 channels Channel positions : Front: L R Sampling rate : 48.0 KHz Compression mode : Lossy Stream size : 21.3 MiB (1%)

 

Sitemap